  0
SECTION
  2
HEADER
  9
$ACADVER
  1
AC1009
  9
$DWGCODEPAGE
  3
ansi_1252
  9
$INSBASE
 10
0.0
 20
0.0
 30
0.0
  9
$EXTMIN
 10
0.0
 20
0.0
 30
0.0
  9
$EXTMAX
 10
420.0
 20
297.0
 30
0.0
  9
$LIMMIN
 10
0.0
 20
0.0
  9
$LIMMAX
 10
420.0
 20
297.0
  9
$ORTHOMODE
 70
     0
  9
$REGENMODE
 70
     1
  9
$FILLMODE
 70
     1
  9
$QTEXTMODE
 70
     0
  9
$MIRRTEXT
 70
     1
  9
$DRAGMODE
 70
     2
  9
$LTSCALE
 40
1.0
  9
$OSMODE
 70
    37
  9
$ATTMODE
 70
     1
  9
$TEXTSIZE
 40
3.0
  9
$TRACEWID
 40
1.0
  9
$TEXTSTYLE
  7
STANDARD
  9
$CLAYER
  8
0
  9
$CELTYPE
  6
BYLAYER
  9
$CECOLOR
 62
   256
  9
$DIMSCALE
 40
1.0
  9
$DIMASZ
 40
3.0
  9
$DIMEXO
 40
1.0
  9
$DIMDLI
 40
3.75
  9
$DIMRND
 40
0.0
  9
$DIMDLE
 40
0.0
  9
$DIMEXE
 40
1.0
  9
$DIMTP
 40
0.0
  9
$DIMTM
 40
0.0
  9
$DIMTXT
 40
3.0
  9
$DIMCEN
 40
2.5
  9
$DIMTSZ
 40
0.0
  9
$DIMTOL
 70
     0
  9
$DIMLIM
 70
     0
  9
$DIMTIH
 70
     1
  9
$DIMTOH
 70
     1
  9
$DIMSE1
 70
     0
  9
$DIMSE2
 70
     0
  9
$DIMTAD
 70
     1
  9
$DIMZIN
 70
     0
  9
$DIMBLK
  1

  9
$DIMASO
 70
     1
  9
$DIMSHO
 70
     1
  9
$DIMPOST
  1

  9
$DIMAPOST
  1

  9
$DIMALT
 70
     0
  9
$DIMALTD
 70
     3
  9
$DIMALTF
 40
0.0393700787
  9
$DIMLFAC
 40
1.0
  9
$DIMTOFL
 70
     1
  9
$DIMTVP
 40
0.0
  9
$DIMTIX
 70
     0
  9
$DIMSOXD
 70
     0
  9
$DIMSAH
 70
     0
  9
$DIMBLK1
  1

  9
$DIMBLK2
  1

  9
$DIMSTYLE
  2
ISO-25
  9
$DIMCLRD
 70
     0
  9
$DIMCLRE
 70
     0
  9
$DIMCLRT
 70
     0
  9
$DIMTFAC
 40
1.0
  9
$DIMGAP
 40
2.0
  9
$LUNITS
 70
     2
  9
$LUPREC
 70
     3
  9
$SKETCHINC
 40
1.0
  9
$FILLETRAD
 40
10.0
  9
$AUNITS
 70
     0
  9
$AUPREC
 70
     0
  9
$MENU
  1
.
  9
$ELEVATION
 40
0.0
  9
$PELEVATION
 40
0.0
  9
$THICKNESS
 40
0.0
  9
$LIMCHECK
 70
     0
  9
$CHAMFERA
 40
10.0
  9
$CHAMFERB
 40
10.0
  9
$SKPOLY
 70
     0
  9
$TDCREATE
 40
2454985.352311065
  9
$TDUPDATE
 40
2454985.352311077
  9
$TDINDWG
 40
0.0000000116
  9
$TDUSRTIMER
 40
0.0000000116
  9
$USRTIMER
 70
     1
  9
$ANGBASE
 50
0.0
  9
$ANGDIR
 70
     0
  9
$PDMODE
 70
     0
  9
$PDSIZE
 40
-1.0
  9
$PLINEWID
 40
0.0
  9
$COORDS
 70
     1
  9
$SPLFRAME
 70
     0
  9
$SPLINETYPE
 70
     6
  9
$SPLINESEGS
 70
     8
  9
$ATTDIA
 70
     0
  9
$ATTREQ
 70
     1
  9
$HANDLING
 70
     1
  9
$HANDSEED
  5
1B2
  9
$SURFTAB1
 70
     6
  9
$SURFTAB2
 70
     6
  9
$SURFTYPE
 70
     6
  9
$SURFU
 70
     6
  9
$SURFV
 70
     6
  9
$UCSNAME
  2

  9
$UCSORG
 10
0.0
 20
0.0
 30
0.0
  9
$UCSXDIR
 10
1.0
 20
0.0
 30
0.0
  9
$UCSYDIR
 10
0.0
 20
1.0
 30
0.0
  9
$PUCSNAME
  2

  9
$PUCSORG
 10
0.0
 20
0.0
 30
0.0
  9
$PUCSXDIR
 10
1.0
 20
0.0
 30
0.0
  9
$PUCSYDIR
 10
0.0
 20
1.0
 30
0.0
  9
$USERI1
 70
     0
  9
$USERI2
 70
     0
  9
$USERI3
 70
     0
  9
$USERI4
 70
     0
  9
$USERI5
 70
     0
  9
$USERR1
 40
0.0
  9
$USERR2
 40
0.0
  9
$USERR3
 40
0.0
  9
$USERR4
 40
0.0
  9
$USERR5
 40
0.0
  9
$WORLDVIEW
 70
     1
  9
$SHADEDGE
 70
     3
  9
$SHADEDIF
 70
    70
  9
$TILEMODE
 70
     1
  9
$MAXACTVP
 70
    64
  9
$PLIMCHECK
 70
     0
  9
$PEXTMIN
 10
1.0000000000E+20
 20
1.0000000000E+20
 30
1.0000000000E+20
  9
$PEXTMAX
 10
-1.0000000000E+20
 20
-1.0000000000E+20
 30
-1.0000000000E+20
  9
$PLIMMIN
 10
0.0
 20
0.0
  9
$PLIMMAX
 10
420.0
 20
297.0
  9
$UNITMODE
 70
     0
  9
$VISRETAIN
 70
     1
  9
$PLINEGEN
 70
     0
  9
$PSLTSCALE
 70
     1
  0
ENDSEC
  0
SECTION
  2
TABLES
  0
TABLE
  2
VPORT
 70
     1
  0
VPORT
  2
*ACTIVE
 70
     0
 10
0.0
 20
0.0
 11
1.0
 21
1.0
 12
210.0
 22
148.5
 13
0.0
 23
0.0
 14
10.0
 24
10.0
 15
10.0
 25
10.0
 16
0.0
 26
0.0
 36
1.0
 17
0.0
 27
0.0
 37
0.0
 40
297.0
 41
1.4141414141
 42
50.0
 43
0.0
 44
0.0
 50
0.0
 51
0.0
 71
     0
 72
  2000
 73
     1
 74
     3
 75
     0
 76
     0
 77
     0
 78
     0
  0
ENDTAB
  0
TABLE
  2
LTYPE
 70
     6
  0
LTYPE
  2
CONTINUOUS
 70
     0
  3
Solid line
 72
    65
 73
     0
 40
0.0
  0
LTYPE
  2
HIDDEN
 70
     0
  3
Hidden __ __ __ __ __ __ __ __ __ __ __ __ __ __
 72
    65
 73
     2
 40
1.905
 49
1.27
 49
-0.635
  0
LTYPE
  2
PHANTOM
 70
     0
  3
Phantom ______  __  __  ______  __  __  ______
 72
    65
 73
     6
 40
12.7
 49
6.35
 49
-1.27
 49
1.27
 49
-1.27
 49
1.27
 49
-1.27
  0
LTYPE
  2
CENTER
 70
     0
  3
Center ____ _ ____ _ ____ _ ____ _ ____ _ ____
 72
    65
 73
     4
 40
10.16
 49
6.35
 49
-1.27
 49
1.27
 49
-1.27
  0
LTYPE
  2
CENTERX2
 70
     0
  3
Center (2x) ________  __  ________  __  _____
 72
    65
 73
     4
 40
20.32
 49
12.7
 49
-2.54
 49
2.54
 49
-2.54
  0
LTYPE
  2
DOT2
 70
     0
  3
Dot (.5x) ........................................
 72
    65
 73
     2
 40
0.635
 49
0.0
 49
-0.635
  0
ENDTAB
  0
TABLE
  2
LAYER
 70
     2
  0
LAYER
  2
0
 70
     0
 62
     7
  6
CONTINUOUS
  0
LAYER
  2
DÜNNE_LINIE
 70
     0
 62
   153
  6
CONTINUOUS
  0
ENDTAB
  0
TABLE
  2
STYLE
 70
     1
  0
STYLE
  2
STANDARD
 70
     0
 40
0.0
 41
1.0
 50
0.0
 71
     0
 42
2.5
  3
txt
  4

  0
ENDTAB
  0
TABLE
  2
VIEW
 70
     0
  0
ENDTAB
  0
TABLE
  2
UCS
 70
     0
  0
ENDTAB
  0
TABLE
  2
APPID
 70
     1
  0
APPID
  2
ACAD
 70
     0
  0
ENDTAB
  0
TABLE
  2
DIMSTYLE
 70
     3
  0
DIMSTYLE
  2
ISO-25
 70
     0
  3

  4

  5

  6

  7

 40
1.0
 41
2.5
 42
0.625
 43
3.75
 44
1.25
 45
0.0
 46
0.0
 47
0.0
 48
0.0
140
2.5
141
2.5
142
0.0
143
0.0393700787
144
1.0
145
0.0
146
1.0
147
0.625
 71
     0
 72
     0
 73
     0
 74
     0
 75
     0
 76
     0
 77
     1
 78
     8
170
     0
171
     3
172
     1
173
     0
174
     0
175
     0
176
     0
177
     0
178
     0
  0
DIMSTYLE
  2
SLDDIMSTYLE0
 70
     0
  3

  4

  5

  6

  7

 40
1.0
 41
3.0
 42
0.0625
 43
0.38
 44
0.0
 45
0.000000001
 46
0.0
 47
0.0
 48
0.0
140
3.0
141
0.09
142
0.0
143
25.4
144
1.0
145
0.0
146
1.0
147
0.75
 71
     0
 72
     0
 73
     0
 74
     0
 75
     0
 76
     0
 77
     1
 78
    12
170
     0
171
     2
172
     0
173
     1
174
     0
175
     0
176
     0
177
     0
178
     0
  0
DIMSTYLE
  2
SLDDIMSTYLE1
 70
     0
  3

  4

  5

  6

  7

 40
1.0
 41
3.0
 42
0.0625
 43
0.38
 44
0.0
 45
0.000000001
 46
0.0
 47
0.0
 48
0.0
140
3.0
141
0.09
142
0.0
143
25.4
144
1.0
145
0.0
146
1.0
147
0.75
 71
     0
 72
     0
 73
     0
 74
     0
 75
     0
 76
     0
 77
     1
 78
    12
170
     0
171
     2
172
     0
173
     1
174
     0
175
     0
176
     0
177
     0
178
     0
  0
ENDTAB
  0
ENDSEC
  0
SECTION
  2
BLOCKS
  0
BLOCK
  8
0
  2
$MODEL_SPACE
 70
     0
 10
0.0
 20
0.0
 30
0.0
  3
$MODEL_SPACE
  1

  0
ENDBLK
  5
21
  8
0
  0
BLOCK
 67
     1
  8
0
  2
$PAPER_SPACE
 70
     0
 10
0.0
 20
0.0
 30
0.0
  3
$PAPER_SPACE
  1

  0
ENDBLK
  5
1D
 67
     1
  8
0
  0
BLOCK
  8
0
  2
SW_NOTE_0
 70
     0
 10
0.0
 20
0.0
 30
0.0
  3
SW_NOTE_0
  1

  0
LINE
  5
6E
  8
0
  6
CONTINUOUS
 62
     0
 10
0.0
 20
0.0
 30
0.0
 11
0.0
 21
-6.3489995327
 31
0.0
  0
LINE
  5
6F
  8
0
  6
CONTINUOUS
 62
     0
 10
0.0
 20
-6.3489995327
 30
0.0
 11
6.9470936916
 21
-6.3489995327
 31
0.0
  0
LINE
  5
70
  8
0
  6
CONTINUOUS
 62
     0
 10
6.9470936916
 20
-6.3489995327
 30
0.0
 11
6.9470936916
 21
0.0
 31
0.0
  0
LINE
  5
71
  8
0
  6
CONTINUOUS
 62
     0
 10
6.9470936916
 20
0.0
 30
0.0
 11
0.0
 21
0.0
 31
0.0
  0
LINE
  5
72
  8
0
  6
CONTINUOUS
 62
     0
 10
0.0
 20
0.0
 30
0.0
 11
6.9470936916
 21
-6.3489995327
 31
0.0
  0
LINE
  5
73
  8
0
  6
CONTINUOUS
 62
     0
 10
0.0
 20
-6.3489995327
 30
0.0
 11
6.9470936916
 21
0.0
 31
0.0
  0
ENDBLK
  5
6D
  8
0
  0
BLOCK
  8
0
  2
SW_NOTE_1
 70
     0
 10
0.0
 20
0.0
 30
0.0
  3
SW_NOTE_1
  1

  0
TEXT
  5
7B
  8
0
  6
CONTINUOUS
 62
     0
 10
0.0
 20
1.1050253168
 30
0.0
 40
3.1280788177
  1
%%p
 41
0.7
 11
0.0
 21
0.0
 31
0.0
 73
     1
  0
TEXT
  5
7C
  8
0
  6
CONTINUOUS
 62
     0
 10
3.8711482193
 20
1.1050253168
 30
0.0
 40
3.1280788177
  1
0,1
 41
0.7
 11
3.8711482193
 21
0.0
 31
0.0
 73
     1
  0
ENDBLK
  5
7A
  8
0
  0
BLOCK
  8
0
  2
SW_NOTE_2
 70
     0
 10
0.0
 20
0.0
 30
0.0
  3
SW_NOTE_2
  1

  0
LINE
  5
8B
  8
0
  6
CONTINUOUS
 62
     0
 10
0.0
 20
0.0
 30
0.0
 11
0.0
 21
-3.5248626168
 31
0.0
  0
LINE
  5
8C
  8
0
  6
CONTINUOUS
 62
     0
 10
0.0
 20
-3.5248626168
 30
0.0
 11
3.8575303738
 21
-3.5248626168
 31
0.0
  0
LINE
  5
8D
  8
0
  6
CONTINUOUS
 62
     0
 10
3.8575303738
 20
-3.5248626168
 30
0.0
 11
3.8575303738
 21
0.0
 31
0.0
  0
LINE
  5
8E
  8
0
  6
CONTINUOUS
 62
     0
 10
3.8575303738
 20
0.0
 30
0.0
 11
0.0
 21
0.0
 31
0.0
  0
LINE
  5
8F
  8
0
  6
CONTINUOUS
 62
     0
 10
0.0
 20
0.0
 30
0.0
 11
3.8575303738
 21
-3.5248626168
 31
0.0
  0
LINE
  5
90
  8
0
  6
CONTINUOUS
 62
     0
 10
0.0
 20
-3.5248626168
 30
0.0
 11
3.8575303738
 21
0.0
 31
0.0
  0
ENDBLK
  5
8A
  8
0
  0
BLOCK
  8
0
  2
*D4
 70
     1
 10
0.0
 20
0.0
 30
0.0
  3
*D4
  1

  0
SOLID
  5
DE
  8
0
  6
CONTINUOUS
 62
     7
 10
184.4435851347
 20
255.7786555584
 30
0.0
 11
183.6935851347
 21
252.7786555584
 31
0.0
 12
185.1935851347
 22
252.7786555584
 32
0.0
 13
185.1935851347
 23
252.7786555584
 33
0.0
  0
SOLID
  5
DF
  8
0
  6
CONTINUOUS
 62
     7
 10
184.4435851347
 20
205.7786555584
 30
0.0
 11
185.1935851347
 21
208.7786555584
 31
0.0
 12
183.6935851347
 22
208.7786555584
 32
0.0
 13
183.6935851347
 23
208.7786555584
 33
0.0
  0
LINE
  5
E0
  8
0
  6
CONTINUOUS
 62
     7
 10
239.1518981918
 20
255.7786555584
 30
0.0
 11
183.4435851347
 21
255.7786555584
 31
0.0
  0
LINE
  5
E1
  8
0
  6
CONTINUOUS
 62
     7
 10
239.1518981918
 20
205.7786555584
 30
0.0
 11
183.4435851347
 21
205.7786555584
 31
0.0
  0
LINE
  5
E2
  8
0
  6
CONTINUOUS
 62
     7
 10
184.4435851347
 20
255.7786555584
 30
0.0
 11
184.4435851347
 21
205.7786555584
 31
0.0
  0
TEXT
  5
E3
  8
0
  6
CONTINUOUS
 62
     7
 10
183.3838048326
 20
225.6470784556
 30
0.0
 40
3.0
  1
SW
 50
90.0
 41
0.7
 11
184.4435850183
 21
225.6470784556
 31
0.0
 73
     1
  0
TEXT
  5
E4
  8
0
  6
CONTINUOUS
 62
     7
 10
183.3838048326
 20
231.4793812594
 30
0.0
 40
3.0
  1
50
 50
90.0
 41
0.7
 11
184.4435850183
 21
231.4793812594
 31
0.0
 73
     1
  0
ENDBLK
  5
DD
  8
0
  0
BLOCK
  8
0
  2
*D5
 70
     1
 10
0.0
 20
0.0
 30
0.0
  3
*D5
  1

  0
SOLID
  5
E9
  8
0
  6
CONTINUOUS
 62
   218
 10
232.1518981918
 20
188.164803502
 30
0.0
 11
235.1518981918
 21
187.414803502
 31
0.0
 12
235.1518981918
 22
188.914803502
 32
0.0
 13
235.1518981918
 23
188.914803502
 33
0.0
  0
SOLID
  5
EA
  8
0
  6
CONTINUOUS
 62
   218
 10
297.1518981918
 20
188.164803502
 30
0.0
 11
294.1518981918
 21
188.914803502
 31
0.0
 12
294.1518981918
 22
187.414803502
 32
0.0
 13
294.1518981918
 23
187.414803502
 33
0.0
  0
LINE
  5
EB
  8
0
  6
CONTINUOUS
 62
   218
 10
232.1518981918
 20
199.7286555584
 30
0.0
 11
232.1518981918
 21
187.164803502
 31
0.0
  0
LINE
  5
EC
  8
0
  6
CONTINUOUS
 62
   218
 10
297.1518981918
 20
199.7286555584
 30
0.0
 11
297.1518981918
 21
187.164803502
 31
0.0
  0
LINE
  5
ED
  8
0
  6
CONTINUOUS
 62
   218
 10
232.1518981918
 20
188.164803502
 30
0.0
 11
297.1518981918
 21
188.164803502
 31
0.0
  0
TEXT
  5
EE
  8
0
  6
CONTINUOUS
 62
   218
 10
262.4364724909
 20
189.2245838042
 30
0.0
 40
3.0
  1
65
 41
0.7
 11
262.4364724909
 21
188.1648036184
 31
0.0
 73
     1
  0
ENDBLK
  5
E8
  8
0
  0
BLOCK
  8
0
  2
*D6
 70
     1
 10
0.0
 20
0.0
 30
0.0
  3
*D6
  1

  0
SOLID
  5
132
  8
0
  6
CONTINUOUS
 62
     7
 10
313.3781341484
 20
160.2733269325
 30
0.0
 11
312.6281341484
 21
157.2733269325
 31
0.0
 12
314.1281341484
 22
157.2733269325
 32
0.0
 13
314.1281341484
 23
157.2733269325
 33
0.0
  0
SOLID
  5
133
  8
0
  6
CONTINUOUS
 62
     7
 10
313.3781341484
 20
99.1733269325
 30
0.0
 11
314.1281341484
 21
102.1733269325
 31
0.0
 12
312.6281341484
 22
102.1733269325
 32
0.0
 13
312.6281341484
 23
102.1733269325
 33
0.0
  0
LINE
  5
134
  8
0
  6
CONTINUOUS
 62
     7
 10
297.6518981918
 20
160.2733269325
 30
0.0
 11
314.3781341484
 21
160.2733269325
 31
0.0
  0
LINE
  5
135
  8
0
  6
CONTINUOUS
 62
     7
 10
297.6518981918
 20
99.1733269325
 30
0.0
 11
314.3781341484
 21
99.1733269325
 31
0.0
  0
LINE
  5
136
  8
0
  6
CONTINUOUS
 62
     7
 10
313.3781341484
 20
160.2733269325
 30
0.0
 11
313.3781341484
 21
99.1733269325
 31
0.0
  0
TEXT
  5
137
  8
0
  6
CONTINUOUS
 62
     7
 10
312.3183537298
 20
125.2464682876
 30
0.0
 40
3.0
  1
%%c
 50
90.0
 41
0.7
 11
313.3781339156
 21
125.2464682876
 31
0.0
 73
     1
  0
TEXT
  5
138
  8
0
  6
CONTINUOUS
 62
     7
 10
312.3183538463
 20
129.7693341755
 30
0.0
 40
3.0
  1
61
 50
90.0
 41
0.7
 11
313.378134032
 21
129.7693341755
 31
0.0
 73
     1
  0
ENDBLK
  5
131
  8
0
  0
ENDSEC
  0
SECTION
  2
ENTITIES
  0
LINE
  5
41
  8
0
  6
CONTINUOUS
 62
     7
 10
223.4617400894
 20
54.207244723
 30
0.0
 11
412.6440228063
 21
54.207244723
 31
0.0
  0
LINE
  5
42
  8
0
  6
CONTINUOUS
 62
     7
 10
22.7544650016
 20
289.1934114716
 30
0.0
 11
412.6440228063
 21
289.1934114716
 31
0.0
  0
LINE
  5
43
  8
DÜNNE_LINIE
 62
     7
 10
223.4617400894
 20
54.207244723
 30
0.0
 11
223.4617400894
 21
5.3114812073
 31
0.0
  0
LINE
  5
44
  8
0
  6
CONTINUOUS
 62
     7
 10
22.7544650016
 20
5.3114812073
 30
0.0
 11
412.6440228063
 21
5.3114812073
 31
0.0
  0
LINE
  5
45
  8
0
  6
CONTINUOUS
 62
     7
 10
412.6440228063
 20
289.1934114716
 30
0.0
 11
412.6440228063
 21
5.3114812073
 31
0.0
  0
LINE
  5
46
  8
DÜNNE_LINIE
 62
     7
 10
296.4552407589
 20
43.4289364721
 30
0.0
 11
296.4552407589
 21
54.207244723
 31
0.0
  0
LINE
  5
47
  8
0
  6
CONTINUOUS
 62
     7
 10
321.3403877482
 20
54.207244723
 30
0.0
 11
321.3403877482
 21
5.3114812073
 31
0.0
  0
LINE
  5
48
  8
0
  6
CONTINUOUS
 62
     7
 10
271.4617400894
 20
27.4562176605
 30
0.0
 11
321.3403877482
 21
27.4562176605
 31
0.0
  0
LINE
  5
49
  8
0
  6
CONTINUOUS
 62
     7
 10
321.3403877482
 20
21.3114812073
 30
0.0
 11
412.6440228063
 21
21.3114812073
 31
0.0
  0
LINE
  5
4A
  8
DÜNNE_LINIE
 62
     7
 10
321.3403877482
 20
37.4562176605
 30
0.0
 11
271.4617400894
 21
37.4562176605
 31
0.0
  0
LINE
  5
4B
  8
0
  6
CONTINUOUS
 62
     7
 10
321.3403877482
 20
46.1022210994
 30
0.0
 11
412.6440228063
 21
46.1022210994
 31
0.0
  0
LINE
  5
4C
  8
DÜNNE_LINIE
 62
     7
 10
271.4617400894
 20
54.207244723
 30
0.0
 11
271.4617400894
 21
5.3114812073
 31
0.0
  0
LINE
  5
4D
  8
0
  6
CONTINUOUS
 62
     7
 10
235.4617400894
 20
54.207244723
 30
0.0
 11
235.4617400894
 21
5.3114812073
 31
0.0
  0
LINE
  5
4E
  8
0
  6
CONTINUOUS
 62
     7
 10
223.4617400894
 20
13.507244723
 30
0.0
 11
271.4617400894
 21
13.507244723
 31
0.0
  0
LINE
  5
4F
  8
DÜNNE_LINIE
 62
     7
 10
223.4617400894
 20
17.207244723
 30
0.0
 11
271.4617400894
 21
17.207244723
 31
0.0
  0
LINE
  5
50
  8
DÜNNE_LINIE
 62
     7
 10
223.4617400894
 20
20.907244723
 30
0.0
 11
271.4617400894
 21
20.907244723
 31
0.0
  0
LINE
  5
51
  8
DÜNNE_LINIE
 62
     7
 10
357.2233888877
 20
21.3114812073
 30
0.0
 11
357.2233888877
 21
5.3114812073
 31
0.0
  0
LINE
  5
52
  8
DÜNNE_LINIE
 62
     7
 10
280.5822996792
 20
43.4289364721
 30
0.0
 11
280.5822996792
 21
27.4562176605
 31
0.0
  0
LINE
  5
53
  8
DÜNNE_LINIE
 62
     7
 10
321.3403877482
 20
43.4289364721
 30
0.0
 11
271.4617400894
 21
43.4289364721
 31
0.0
  0
LINE
  5
54
  8
DÜNNE_LINIE
 62
     7
 10
296.4552407589
 20
5.3114812073
 30
0.0
 11
296.4552407589
 21
27.4562176605
 31
0.0
  0
LINE
  5
55
  8
DÜNNE_LINIE
 62
     7
 10
321.3403877482
 20
32.4562176605
 30
0.0
 11
271.4617400894
 21
32.4562176605
 31
0.0
  0
LINE
  5
56
  8
DÜNNE_LINIE
 62
     7
 10
296.4552407589
 20
17.0023090769
 30
0.0
 11
271.4617400894
 21
17.0023090769
 31
0.0
  0
LINE
  5
57
  8
DÜNNE_LINIE
 62
     7
 10
296.4552407589
 20
43.4289364721
 30
0.0
 11
296.4552407589
 21
27.4562176605
 31
0.0
  0
LINE
  5
58
  8
DÜNNE_LINIE
 62
     7
 10
22.7544650016
 20
289.1934114716
 30
0.0
 11
22.7544650016
 21
5.3114812073
 31
0.0
  0
LINE
  5
59
  8
DÜNNE_LINIE
 62
     7
 10
247.4617400894
 20
5.3114812073
 30
0.0
 11
247.4617400894
 21
54.207244723
 31
0.0
  0
LINE
  5
5A
  8
DÜNNE_LINIE
 62
     7
 10
223.4617400894
 20
9.807244723
 30
0.0
 11
271.4617400894
 21
9.807244723
 31
0.0
  0
LINE
  5
5B
  8
DÜNNE_LINIE
 62
     7
 10
223.4617400894
 20
24.607244723
 30
0.0
 11
271.4617400894
 21
24.607244723
 31
0.0
  0
LINE
  5
5C
  8
DÜNNE_LINIE
 62
     7
 10
223.4617400894
 20
28.307244723
 30
0.0
 11
271.4617400894
 21
28.307244723
 31
0.0
  0
LINE
  5
5D
  8
DÜNNE_LINIE
 62
     7
 10
223.4617400894
 20
32.007244723
 30
0.0
 11
271.4617400894
 21
32.007244723
 31
0.0
  0
LINE
  5
5E
  8
DÜNNE_LINIE
 62
     7
 10
223.4617400894
 20
35.707244723
 30
0.0
 11
271.4617400894
 21
35.707244723
 31
0.0
  0
LINE
  5
5F
  8
DÜNNE_LINIE
 62
     7
 10
223.4617400894
 20
39.407244723
 30
0.0
 11
271.4617400894
 21
39.407244723
 31
0.0
  0
LINE
  5
60
  8
DÜNNE_LINIE
 62
     7
 10
223.4617400894
 20
43.107244723
 30
0.0
 11
271.4617400894
 21
43.107244723
 31
0.0
  0
LINE
  5
61
  8
DÜNNE_LINIE
 62
     7
 10
259.4617400894
 20
54.207244723
 30
0.0
 11
259.4617400894
 21
5.3114812073
 31
0.0
  0
LINE
  5
62
  8
DÜNNE_LINIE
 62
     7
 10
223.4617400894
 20
46.807244723
 30
0.0
 11
271.4617400894
 21
46.807244723
 31
0.0
  0
LINE
  5
63
  8
DÜNNE_LINIE
 62
     7
 10
223.4617400894
 20
50.507244723
 30
0.0
 11
271.4617400894
 21
50.507244723
 31
0.0
  0
TEXT
  5
64
  8
0
  6
CONTINUOUS
 62
     7
 10
321.7265652656
 20
48.4803054211
 30
0.0
 40
4.0640394089
  1
Jongen Werkzeugtechnik GmbH & Co. KG
 41
0.6513888889
 11
321.7265652656
 21
47.0446426079
 31
0.0
 73
     1
  0
TEXT
  5
65
  8
0
  6
CONTINUOUS
 62
     7
 10
277.9322518652
 20
24.7318510909
 30
0.0
 40
2.1
  1
Maßstab:
 41
0.7
 11
277.9322518652
 21
23.9900049608
 31
0.0
 73
     1
  0
TEXT
  5
66
  8
0
  6
CONTINUOUS
 62
     7
 10
279.9070978849
 20
18.4388538686
 30
0.0
 40
3.51908867
  1
1:1
 41
0.7
 11
279.9070978849
 21
17.1957003872
 31
0.0
 73
     1
  0
TEXT
  5
67
  8
0
  6
CONTINUOUS
 62
     7
 10
332.953804486
 20
9.4435987018
 30
0.0
 40
3.1280788177
  1
DXF
 41
0.7
 11
332.953804486
 21
8.3385733849
 31
0.0
 73
     1
  0
TEXT
  5
68
  8
0
  6
CONTINUOUS
 62
     7
 10
322.8358210405
 20
18.3451648069
 30
0.0
 40
2.1
  1
Verwendungsbereich:
 41
0.7
 11
322.8358210405
 21
17.6033186769
 31
0.0
 73
     1
  0
TEXT
  5
69
  8
0
  6
CONTINUOUS
 62
     7
 10
358.4489182792
 20
18.1354880373
 30
0.0
 40
2.1
  1
EDV-Nr.:
 41
0.7
 11
358.4489182792
 21
17.3936419072
 31
0.0
 73
     1
  0
TEXT
  5
6A
  8
0
  6
CONTINUOUS
 62
     7
 10
359.4200763604
 20
9.4435987018
 30
0.0
 40
3.1280788177
  1
JAD809    (7)
 41
0.5923076923
 11
359.4200763604
 21
8.3385733849
 31
0.0
 73
     1
  0
INSERT
  5
74
  8
0
  6
CONTINUOUS
 62
     7
  2
SW_NOTE_0
 10
281.3507094971
 20
11.3405103284
 30
0.0
  0
TEXT
  5
75
  8
0
  6
CONTINUOUS
 62
     7
 10
278.0432927854
 20
14.2059720169
 30
0.0
 40
2.1
  1
Material:
 41
0.7
 11
278.0432927854
 21
13.4641258868
 31
0.0
 73
     1
  0
TEXT
  5
76
  8
0
  6
CONTINUOUS
 62
     7
 10
275.8089582066
 20
51.2716979145
 30
0.0
 40
2.1
  1
Blattformat:
 41
0.7
 11
275.8089582066
 21
50.5298517844
 31
0.0
 73
     1
  0
TEXT
  5
77
  8
0
  6
CONTINUOUS
 62
     7
 10
280.9290599035
 20
45.7409052023
 30
0.0
 40
4.0640394089
  1
A3
 41
0.7
 11
280.9290599035
 21
44.3052423891
 31
0.0
 73
     1
  0
INSERT
  5
7D
  8
0
  6
CONTINUOUS
 62
     7
  2
SW_NOTE_1
 10
303.9742499361
 20
44.0782999952
 30
0.0
  0
TEXT
  5
7E
  8
0
  6
CONTINUOUS
 62
     7
 10
324.979292858
 20
42.1894623557
 30
0.0
 40
2.1
  1
Benennung:
 41
0.7
 11
324.979292858
 21
41.4476162256
 31
0.0
 73
     1
  0
TEXT
  5
7F
  8
0
  6
CONTINUOUS
 62
     7
 10
324.3568951657
 20
33.3522384816
 30
0.0
 40
3.51908867
  1
Adapter für Fräsring mit FP328
 41
0.6533333333
 11
324.3568951657
 21
32.1090850001
 31
0.0
 73
     1
  0
TEXT
  5
80
  8
0
  6
CONTINUOUS
 62
     7
 10
325.0574726845
 20
24.3544429539
 30
0.0
 40
3.51908867
  1
AD 63-65-328
 41
0.7
 11
325.0574726845
 21
23.1112894725
 31
0.0
 73
     1
  0
TEXT
  5
81
  8
0
  6
CONTINUOUS
 62
     7
 10
298.3566826774
 20
51.0136078907
 30
0.0
 40
2.1
  1
Freimaßtoleranz:
 41
0.7
 11
298.3566826774
 21
50.2717617607
 31
0.0
 73
     1
  0
TEXT
  5
82
  8
0
  6
CONTINUOUS
 62
     7
 10
285.0813190649
 20
39.3830948998
 30
0.0
 40
2.2167487685
  1
Datum
 41
0.7
 11
285.0813190649
 21
38.6000060926
 31
0.0
 73
     1
  0
TEXT
  5
83
  8
0
  6
CONTINUOUS
 62
     7
 10
299.6164273423
 20
39.4517137094
 30
0.0
 40
2.2167487685
  1
Name
 41
0.7
 11
299.6164273423
 21
38.6686249021
 31
0.0
 73
     1
  0
TEXT
  5
84
  8
0
  6
CONTINUOUS
 62
     7
 10
298.427954483
 20
33.979004463
 30
0.0
 40
2.6458333333
  1
Knüpper
 41
0.7
 11
298.427954483
 21
33.0443372158
 31
0.0
 73
     1
  0
TEXT
  5
85
  8
0
  6
CONTINUOUS
 62
     7
 10
282.1762497222
 20
33.5566156496
 30
0.0
 40
2.6458333333
  1
29.05.09
 41
0.7
 11
282.1762497222
 21
32.6219484025
 31
0.0
 73
     1
  0
TEXT
  5
86
  8
0
  6
CONTINUOUS
 62
     7
 10
272.1423209585
 20
34.0626254918
 30
0.0
 40
2.2167487685
  1
Erst.
 41
0.7
 11
272.1423209585
 21
33.2795366845
 31
0.0
 73
     1
  0
TEXT
  5
87
  8
0
  6
CONTINUOUS
 62
     7
 10
271.845495204
 20
28.954628296
 30
0.0
 40
2.2167487685
  1
Geänd.
 41
0.7
 11
271.845495204
 21
28.1715394888
 31
0.0
 73
     1
  0
INSERT
  5
91
  8
0
  6
CONTINUOUS
 62
     7
  2
SW_NOTE_2
 10
283.1617731628
 20
31.7324480013
 30
0.0
  0
TEXT
  5
92
  8
0
  6
CONTINUOUS
 62
     7
 10
239.2063094334
 20
6.310459793
 30
0.0
 40
2.2167487685
  1
Datum
 41
0.7
 11
239.2063094334
 21
5.5273709858
 31
0.0
 73
     1
  0
TEXT
  5
93
  8
0
  6
CONTINUOUS
 62
     7
 10
228.4988719266
 20
6.0914680491
 30
0.0
 40
2.2167487685
  1
Änd.
 41
0.7
 11
228.4988719266
 21
5.3083792419
 31
0.0
 73
     1
  0
TEXT
  5
94
  8
0
  6
CONTINUOUS
 62
     7
 10
252.4000651032
 20
6.3332403996
 30
0.0
 40
2.2167487685
  1
Änd.
 41
0.7
 11
252.4000651032
 21
5.5501515924
 31
0.0
 73
     1
  0
TEXT
  5
95
  8
0
  6
CONTINUOUS
 62
     7
 10
263.0452134086
 20
6.3993991538
 30
0.0
 40
2.2167487685
  1
Datum
 41
0.7
 11
263.0452134086
 21
5.6163103466
 31
0.0
 73
     1
  0
LINE
  5
96
  8
0
  6
CONTINUOUS
 62
     7
 10
240.1518981918
 20
261.3286555584
 30
0.0
 11
232.6518981918
 21
261.3286555584
 31
0.0
  0
LINE
  5
97
  8
0
  6
CONTINUOUS
 62
     7
 10
296.6518981918
 20
261.3286555584
 30
0.0
 11
258.1518981918
 21
261.3286555584
 31
0.0
  0
LINE
  5
98
  8
0
  6
CONTINUOUS
 62
     7
 10
258.1518981918
 20
200.2286555584
 30
0.0
 11
296.6518981918
 21
200.2286555584
 31
0.0
  0
LINE
  5
99
  8
0
  6
CONTINUOUS
 62
     7
 10
232.6518981918
 20
200.2286555584
 30
0.0
 11
240.1518981918
 21
200.2286555584
 31
0.0
  0
LINE
  5
9A
  8
0
  6
CONTINUOUS
 62
     7
 10
232.6518981918
 20
261.3286555584
 30
0.0
 11
232.1518981918
 21
260.8286555584
 31
0.0
  0
LINE
  5
9B
  8
0
  6
CONTINUOUS
 62
     7
 10
232.1518981918
 20
200.7286555584
 30
0.0
 11
232.6518981918
 21
200.2286555584
 31
0.0
  0
LINE
  5
9C
  8
0
  6
CONTINUOUS
 62
     7
 10
296.6518981918
 20
200.2286555584
 30
0.0
 11
297.1518981918
 21
200.7286555584
 31
0.0
  0
ARC
  5
9D
  8
0
  6
CONTINUOUS
 62
     7
 10
231.7192137428
 20
247.3113400075
 30
0.0
 40
0.6326844490359633
 50
270.0
 51
313.1481113513
  0
ARC
  5
9E
  8
0
  6
CONTINUOUS
 62
     7
 10
231.7192137428
 20
214.2459711094
 30
0.0
 40
0.6326844490359917
 50
46.8518886487
 51
90.0
  0
LINE
  5
9F
  8
0
  6
CONTINUOUS
 62
     7
 10
217.5518981918
 20
214.6786555584
 30
0.0
 11
230.0251032726
 21
214.6786555584
 31
0.0
  0
LINE
  5
A0
  8
0
  6
CONTINUOUS
 62
     7
 10
230.0251032726
 20
246.8786555584
 30
0.0
 11
217.5518981918
 21
246.8786555584
 31
0.0
  0
LINE
  5
A1
  8
0
  6
CONTINUOUS
 62
     7
 10
230.0251032726
 20
214.6786555584
 30
0.0
 11
230.6952135056
 21
214.8582110542
 31
0.0
  0
LINE
  5
A2
  8
0
  6
CONTINUOUS
 62
     7
 10
230.6952135056
 20
246.6991000626
 30
0.0
 11
230.0251032726
 21
246.8786555584
 31
0.0
  0
LINE
  5
A3
  8
0
  6
CONTINUOUS
 62
     7
 10
217.5518981918
 20
246.8786555584
 30
0.0
 11
217.1518981918
 21
246.4786555584
 31
0.0
  0
LINE
  5
A4
  8
0
  6
CONTINUOUS
 62
     7
 10
217.1518981918
 20
215.0786555584
 30
0.0
 11
217.5518981918
 21
214.6786555584
 31
0.0
  0
ARC
  5
A5
  8
0
  6
CONTINUOUS
 62
     7
 10
230.8505049327
 20
247.2786555584
 30
0.0
 40
0.6000000000000008
 50
255.0
 51
270.0
  0
ARC
  5
A6
  8
0
  6
CONTINUOUS
 62
     7
 10
230.8505049327
 20
214.2786555584
 30
0.0
 40
0.6000000000000008
 50
90.0
 51
105.0
  0
LINE
  5
A7
  8
0
  6
CONTINUOUS
 62
     7
 10
231.7192137428
 20
246.6786555584
 30
0.0
 11
230.8505049327
 21
246.6786555584
 31
0.0
  0
LINE
  5
A8
  8
0
  6
CONTINUOUS
 62
     7
 10
230.8505049327
 20
214.8786555584
 30
0.0
 11
231.7192137428
 21
214.8786555584
 31
0.0
  0
ARC
  5
A9
  8
0
  6
CONTINUOUS
 62
     7
 10
214.1518981918
 20
243.6786555584
 30
0.0
 40
3.0
 50
270.0
 51
0.0
  0
ARC
  5
AA
  8
0
  6
CONTINUOUS
 62
     7
 10
214.1518981918
 20
217.8786555584
 30
0.0
 40
3.0
 50
0.0
 51
90.0
  0
LINE
  5
AB
  8
0
  6
CONTINUOUS
 62
     7
 10
210.1518981918
 20
218.7786555584
 30
0.0
 11
212.2518981918
 21
220.8786555584
 31
0.0
  0
LINE
  5
AC
  8
0
  6
CONTINUOUS
 62
     7
 10
212.2518981918
 20
240.6786555584
 30
0.0
 11
210.1518981918
 21
242.7786555584
 31
0.0
  0
LINE
  5
AD
  8
0
  6
CONTINUOUS
 62
     7
 10
210.1518981918
 20
242.7786555584
 30
0.0
 11
199.1518981918
 21
242.7786555584
 31
0.0
  0
LINE
  5
AE
  8
0
  6
CONTINUOUS
 62
     7
 10
199.1518981918
 20
218.7786555584
 30
0.0
 11
210.1518981918
 21
218.7786555584
 31
0.0
  0
LINE
  5
AF
  8
0
  6
CONTINUOUS
 62
     7
 10
199.1518981918
 20
242.7786555584
 30
0.0
 11
197.1518981918
 21
240.7786555584
 31
0.0
  0
LINE
  5
B0
  8
0
  6
CONTINUOUS
 62
     7
 10
197.1518981918
 20
220.7786555584
 30
0.0
 11
199.1518981918
 21
218.7786555584
 31
0.0
  0
LINE
  5
B1
  8
0
  6
CONTINUOUS
 62
     7
 10
214.1518981918
 20
240.6786555584
 30
0.0
 11
212.2518981918
 21
240.6786555584
 31
0.0
  0
LINE
  5
B2
  8
0
  6
CONTINUOUS
 62
     7
 10
212.2518981918
 20
220.8786555584
 30
0.0
 11
214.1518981918
 21
220.8786555584
 31
0.0
  0
LINE
  5
B3
  8
0
  6
CONTINUOUS
 62
     7
 10
297.1518981918
 20
260.8286555584
 30
0.0
 11
296.6518981918
 21
261.3286555584
 31
0.0
  0
LINE
  5
B4
  8
0
  6
CONTINUOUS
 62
     7
 10
296.6518981918
 20
261.2986485813
 30
0.0
 11
296.6518981918
 21
261.3286555584
 31
0.0
  0
POLYLINE
  5
B5
  8
0
  6
CONTINUOUS
 62
     7
 66
     1
 10
0.0
 20
0.0
 30
0.0
  0
VERTEX
  5
177
  8
0
  6
CONTINUOUS
 62
     7
 10
296.6518981918
 20
260.3608560113
 30
0.0
  0
VERTEX
  5
178
  8
0
  6
CONTINUOUS
 62
     7
 10
296.6018684262
 20
260.370637682
 30
0.0
  0
VERTEX
  5
179
  8
0
  6
CONTINUOUS
 62
     7
 10
296.3971874299
 20
260.4136287432
 30
0.0
  0
VERTEX
  5
17A
  8
0
  6
CONTINUOUS
 62
     7
 10
296.204069543
 20
260.4589594493
 30
0.0
  0
VERTEX
  5
17B
  8
0
  6
CONTINUOUS
 62
     7
 10
296.0237191652
 20
260.5060842743
 30
0.0
  0
VERTEX
  5
17C
  8
0
  6
CONTINUOUS
 62
     7
 10
295.857340696
 20
260.5544576923
 30
0.0
  0
VERTEX
  5
17D
  8
0
  6
CONTINUOUS
 62
     7
 10
295.706138535
 20
260.6035341775
 30
0.0
  0
VERTEX
  5
17E
  8
0
  6
CONTINUOUS
 62
     7
 10
295.5699933846
 20
260.6532024874
 30
0.0
  0
VERTEX
  5
17F
  8
0
  6
CONTINUOUS
 62
     7
 10
295.4494883785
 20
260.7030277705
 30
0.0
  0
VERTEX
  5
180
  8
0
  6
CONTINUOUS
 62
     7
 10
295.3453472332
 20
260.7525066948
 30
0.0
  0
VERTEX
  5
181
  8
0
  6
CONTINUOUS
 62
     7
 10
295.2582936648
 20
260.8011359281
 30
0.0
  0
VERTEX
  5
182
  8
0
  6
CONTINUOUS
 62
     7
 10
295.1890513896
 20
260.8484121383
 30
0.0
  0
VERTEX
  5
183
  8
0
  6
CONTINUOUS
 62
     7
 10
295.1381558762
 20
260.8938502148
 30
0.0
  0
VERTEX
  5
184
  8
0
  6
CONTINUOUS
 62
     7
 10
295.1050367129
 20
260.9376293639
 30
0.0
  0
VERTEX
  5
185
  8
0
  6
CONTINUOUS
 62
     7
 10
295.0898014354
 20
260.9794371462
 30
0.0
  0
VERTEX
  5
186
  8
0
  6
CONTINUOUS
 62
     7
 10
295.0925575797
 20
261.0189611223
 30
0.0
  0
VERTEX
  5
187
  8
0
  6
CONTINUOUS
 62
     7
 10
295.1134126815
 20
261.0558888527
 30
0.0
  0
VERTEX
  5
188
  8
0
  6
CONTINUOUS
 62
     7
 10
295.1522358166
 20
261.089951027
 30
0.0
  0
VERTEX
  5
189
  8
0
  6
CONTINUOUS
 62
     7
 10
295.2088489797
 20
261.1214689305
 30
0.0
  0
VERTEX
  5
18A
  8
0
  6
CONTINUOUS
 62
     7
 10
295.2827443421
 20
261.1503696593
 30
0.0
  0
VERTEX
  5
18B
  8
0
  6
CONTINUOUS
 62
     7
 10
295.3734140753
 20
261.1765803099
 30
0.0
  0
VERTEX
  5
18C
  8
0
  6
CONTINUOUS
 62
     7
 10
295.4803503509
 20
261.2000279786
 30
0.0
  0
VERTEX
  5
18D
  8
0
  6
CONTINUOUS
 62
     7
 10
295.6039739055
 20
261.2208702561
 30
0.0
  0
VERTEX
  5
18E
  8
0
  6
CONTINUOUS
 62
     7
 10
295.7436661924
 20
261.2392543566
 30
0.0
  0
VERTEX
  5
18F
  8
0
  6
CONTINUOUS
 62
     7
 10
295.898395999
 20
261.2552904641
 30
0.0
  0
VERTEX
  5
190
  8
0
  6
CONTINUOUS
 62
     7
 10
296.0671321131
 20
261.2690887627
 30
0.0
  0
VERTEX
  5
191
  8
0
  6
CONTINUOUS
 62
     7
 10
296.2488433219
 20
261.2807594364
 30
0.0
  0
VERTEX
  5
192
  8
0
  6
CONTINUOUS
 62
     7
 10
296.4444042065
 20
261.2905609648
 30
0.0
  0
VERTEX
  5
193
  8
0
  6
CONTINUOUS
 62
     7
 10
296.6518981918
 20
261.2986485813
 30
0.0
  0
SEQEND
  5
194
  8
0
  6
CONTINUOUS
 62
     7
  0
LINE
  5
B6
  8
0
  6
CONTINUOUS
 62
     7
 10
296.6518981918
 20
229.4249473619
 30
0.0
 11
296.6518981918
 21
260.3608560113
 31
0.0
  0
ARC
  5
B7
  8
0
  6
CONTINUOUS
 62
     7
 10
299.0204597938
 20
226.2874890593
 30
0.0
 40
3.931123079132957
 50
127.0502522983
 51
232.9497477017
  0
LINE
  5
B8
  8
0
  6
CONTINUOUS
 62
     7
 10
296.6518981918
 20
200.2286555584
 30
0.0
 11
296.6518981918
 21
223.1500307567
 31
0.0
  0
LINE
  5
B9
  8
0
  6
CONTINUOUS
 62
     7
 10
232.6518981918
 20
230.7786555584
 30
0.0
 11
232.6518981918
 21
200.2286555584
 31
0.0
  0
LINE
  5
BA
  8
0
  6
CONTINUOUS
 62
     7
 10
232.6518981918
 20
261.3286555584
 30
0.0
 11
232.6518981918
 21
230.7786555584
 31
0.0
  0
LINE
  5
BB
  8
0
  6
CONTINUOUS
 62
     7
 10
240.1518981918
 20
261.3286555584
 30
0.0
 11
240.1518981918
 21
255.7786555584
 31
0.0
  0
LINE
  5
BC
  8
0
  6
CONTINUOUS
 62
     7
 10
240.1518981918
 20
255.7786555584
 30
0.0
 11
258.1518981918
 21
255.7786555584
 31
0.0
  0
LINE
  5
BD
  8
0
  6
CONTINUOUS
 62
     7
 10
258.1518981918
 20
255.7786555584
 30
0.0
 11
258.1518981918
 21
261.3286555584
 31
0.0
  0
LINE
  5
BE
  8
0
  6
CONTINUOUS
 62
     7
 10
258.1518981918
 20
200.2286555584
 30
0.0
 11
258.1518981918
 21
205.7786555584
 31
0.0
  0
LINE
  5
BF
  8
0
  6
CONTINUOUS
 62
     7
 10
258.1518981918
 20
205.7786555584
 30
0.0
 11
240.1518981918
 21
205.7786555584
 31
0.0
  0
LINE
  5
C0
  8
0
  6
CONTINUOUS
 62
     7
 10
240.1518981918
 20
205.7786555584
 30
0.0
 11
240.1518981918
 21
200.2286555584
 31
0.0
  0
ARC
  5
C1
  8
0
  6
CONTINUOUS
 62
     7
 10
326.9489508208
 20
285.8887174615
 30
0.0
 40
39.61796446341135
 50
220.1170074421
 51
221.2265474335
  0
LINE
  5
C2
  8
0
  6
CONTINUOUS
 62
     7
 10
297.1518981918
 20
259.7789728659
 30
0.0
 11
297.1518981918
 21
229.8287686934
 31
0.0
  0
ARC
  5
C3
  8
0
  6
CONTINUOUS
 62
     7
 10
300.0243038004
 20
225.7607848842
 30
0.0
 40
4.979880144291935
 50
125.2259362812
 51
132.6257079571
  0
LINE
  5
C4
  8
0
  6
CONTINUOUS
 62
     7
 10
297.1518981918
 20
223.9361445183
 30
0.0
 11
297.1518981918
 21
222.9056576499
 31
0.0
  0
ARC
  5
C5
  8
0
  6
CONTINUOUS
 62
     7
 10
298.3412496009
 20
225.9728315381
 30
0.0
 40
3.28969792460463
 50
239.1008967888
 51
248.8053088289
  0
ARC
  5
C6
  8
0
  6
CONTINUOUS
 62
     7
 10
298.8528815001
 20
227.2907901243
 30
0.0
 40
3.761248643386232
 50
187.6964632175
 51
243.1125734274
  0
LINE
  5
C7
  8
0
  6
CONTINUOUS
 62
     7
 10
232.1518981918
 20
230.7786555584
 30
0.0
 11
232.1518981918
 21
260.8286555584
 31
0.0
  0
LINE
  5
C8
  8
0
  6
CONTINUOUS
 62
     7
 10
232.1518981918
 20
200.7286555584
 30
0.0
 11
232.1518981918
 21
230.7786555584
 31
0.0
  0
LINE
  5
C9
  8
0
  6
CONTINUOUS
 62
     7
 10
297.1518981918
 20
222.9056576499
 30
0.0
 11
297.1518981918
 21
200.7286555584
 31
0.0
  0
LINE
  5
CA
  8
0
  6
CONTINUOUS
 62
     7
 10
297.1518981918
 20
223.9361445183
 30
0.0
 11
297.1518981918
 21
229.8287686934
 31
0.0
  0
LINE
  5
CB
  8
0
  6
CONTINUOUS
 62
     7
 10
217.5518981918
 20
214.6786555584
 30
0.0
 11
217.5518981918
 21
246.8786555584
 31
0.0
  0
LINE
  5
CC
  8
0
  6
CONTINUOUS
 62
     7
 10
230.0251032726
 20
230.7786555584
 30
0.0
 11
230.0251032726
 21
214.6786555584
 31
0.0
  0
LINE
  5
CD
  8
0
  6
CONTINUOUS
 62
     7
 10
230.0251032726
 20
246.8786555584
 30
0.0
 11
230.0251032726
 21
230.7786555584
 31
0.0
  0
LINE
  5
CE
  8
0
  6
CONTINUOUS
 62
     7
 10
217.1518981918
 20
230.7786555584
 30
0.0
 11
217.1518981918
 21
246.4786555584
 31
0.0
  0
LINE
  5
CF
  8
0
  6
CONTINUOUS
 62
     7
 10
217.1518981918
 20
215.0786555584
 30
0.0
 11
217.1518981918
 21
230.7786555584
 31
0.0
  0
LINE
  5
D0
  8
0
  6
CONTINUOUS
 62
     7
 10
212.2518981918
 20
240.6786555584
 30
0.0
 11
212.2518981918
 21
220.8786555584
 31
0.0
  0
LINE
  5
D1
  8
0
  6
CONTINUOUS
 62
     7
 10
210.1518981918
 20
242.7786555584
 30
0.0
 11
210.1518981918
 21
218.7786555584
 31
0.0
  0
LINE
  5
D2
  8
0
  6
CONTINUOUS
 62
     7
 10
199.1518981918
 20
242.7786555584
 30
0.0
 11
199.1518981918
 21
218.7786555584
 31
0.0
  0
LINE
  5
D3
  8
0
  6
CONTINUOUS
 62
     7
 10
197.1518981918
 20
240.7786555584
 30
0.0
 11
197.1518981918
 21
220.7786555584
 31
0.0
  0
ARC
  5
D4
  8
0
  6
CONTINUOUS
 62
     7
 10
245.58656809
 20
208.1548145283
 30
0.0
 40
73.70166237117269
 50
45.6011111275
 51
46.1426415005
  0
LINE
  5
D5
  8
0
  6
CONTINUOUS
 62
     7
 10
297.1518981918
 20
260.8136387438
 30
0.0
 11
297.1518981918
 21
259.7789728659
 31
0.0
  0
LINE
  5
D6
  8
0
  6
CONTINUOUS
 62
     7
 10
297.1518981918
 20
260.8286555584
 30
0.0
 11
297.1518981918
 21
260.8136387438
 31
0.0
  0
LINE
  5
D7
  8
0
  6
CENTER
 62
     7
 10
192.5673214504
 20
230.7786555584
 30
0.0
 11
306.1289016003
 21
230.7786555584
 31
0.0
  0
LINE
  5
D8
  8
0
  6
CONTINUOUS
 62
     7
 10
249.1518981918
 20
278.0374914013
 30
0.0
 11
249.1518981918
 21
275.4652179822
 31
0.0
  0
DIMENSION
  5
D9
  8
0
  6
CONTINUOUS
 62
     7
  2
*D4
 10
184.4435851347
 20
205.7786555584
 30
0.0
 11
184.4435851347
 21
230.7786555584
 31
0.0
 70
   160
  1
SW<>
  3
SLDDIMSTYLE0
 13
240.1518981918
 23
255.7786555584
 33
0.0
 14
240.1518981918
 24
205.7786555584
 34
0.0
 50
90.0
  0
DIMENSION
  5
E5
  8
0
  6
CONTINUOUS
 62
   218
  2
*D5
 10
297.1518981918
 20
188.164803502
 30
0.0
 11
264.6518981918
 21
188.164803502
 31
0.0
 70
   160
  3
SLDDIMSTYLE0
 13
232.1518981918
 23
200.7286555584
 33
0.0
 14
297.1518981918
 24
200.7286555584
 34
0.0
  0
LINE
  5
EF
  8
0
  6
CONTINUOUS
 62
     7
 10
197.5268981918
 20
241.1536555584
 30
0.0
 11
211.7768981918
 21
241.1536555584
 31
0.0
  0
LINE
  5
F0
  8
0
  6
CONTINUOUS
 62
     7
 10
197.5268981918
 20
220.4036555584
 30
0.0
 11
211.7768981918
 21
220.4036555584
 31
0.0
  0
LINE
  5
F1
  8
0
  6
CONTINUOUS
 62
     7
 10
296.6518981918
 20
160.2733269325
 30
0.0
 11
232.6518981918
 21
160.2733269325
 31
0.0
  0
LINE
  5
F2
  8
0
  6
CONTINUOUS
 62
     7
 10
232.6518981918
 20
99.1733269325
 30
0.0
 11
296.6518981918
 21
99.1733269325
 31
0.0
  0
LINE
  5
F3
  8
0
  6
CONTINUOUS
 62
     7
 10
232.6518981918
 20
160.2733269325
 30
0.0
 11
232.1518981918
 21
159.7733269325
 31
0.0
  0
LINE
  5
F4
  8
0
  6
CONTINUOUS
 62
     7
 10
232.1518981918
 20
99.6733269325
 30
0.0
 11
232.6518981918
 21
99.1733269325
 31
0.0
  0
LINE
  5
F5
  8
0
  6
CONTINUOUS
 62
     7
 10
296.6518981918
 20
99.1733269325
 30
0.0
 11
297.1518981918
 21
99.6733269325
 31
0.0
  0
ARC
  5
F6
  8
0
  6
CONTINUOUS
 62
     7
 10
231.7192137428
 20
146.2560113815
 30
0.0
 40
0.6326844490359815
 50
270.0
 51
313.1481113513
  0
ARC
  5
F7
  8
0
  6
CONTINUOUS
 62
     7
 10
231.7192137428
 20
113.1906424835
 30
0.0
 40
0.6326844490359712
 50
46.8518886487
 51
90.0
  0
LINE
  5
F8
  8
0
  6
CONTINUOUS
 62
     7
 10
217.5518981918
 20
113.6233269325
 30
0.0
 11
230.0251032726
 21
113.6233269325
 31
0.0
  0
LINE
  5
F9
  8
0
  6
CONTINUOUS
 62
     7
 10
230.0251032726
 20
145.8233269325
 30
0.0
 11
217.5518981918
 21
145.8233269325
 31
0.0
  0
LINE
  5
FA
  8
0
  6
CONTINUOUS
 62
     7
 10
230.0251032726
 20
113.6233269325
 30
0.0
 11
230.6952135056
 21
113.8028824283
 31
0.0
  0
LINE
  5
FB
  8
0
  6
CONTINUOUS
 62
     7
 10
230.6952135056
 20
145.6437714367
 30
0.0
 11
230.0251032726
 21
145.8233269325
 31
0.0
  0
LINE
  5
FC
  8
0
  6
CONTINUOUS
 62
     7
 10
217.5518981918
 20
145.8233269325
 30
0.0
 11
217.1518981918
 21
145.4233269325
 31
0.0
  0
LINE
  5
FD
  8
0
  6
CONTINUOUS
 62
     7
 10
217.1518981918
 20
114.0233269325
 30
0.0
 11
217.5518981918
 21
113.6233269325
 31
0.0
  0
ARC
  5
FE
  8
0
  6
CONTINUOUS
 62
     7
 10
230.8505049327
 20
146.2233269325
 30
0.0
 40
0.5999999999999733
 50
255.0
 51
270.0
  0
ARC
  5
FF
  8
0
  6
CONTINUOUS
 62
     7
 10
230.8505049327
 20
113.2233269325
 30
0.0
 40
0.6000000000000008
 50
90.0
 51
105.0
  0
LINE
  5
100
  8
0
  6
CONTINUOUS
 62
     7
 10
231.7192137428
 20
145.6233269325
 30
0.0
 11
230.8505049327
 21
145.6233269325
 31
0.0
  0
LINE
  5
101
  8
0
  6
CONTINUOUS
 62
     7
 10
230.8505049327
 20
113.8233269325
 30
0.0
 11
231.7192137428
 21
113.8233269325
 31
0.0
  0
ARC
  5
102
  8
0
  6
CONTINUOUS
 62
     7
 10
214.1518981918
 20
142.6233269325
 30
0.0
 40
3.000000000000028
 50
270.0
 51
0.0
  0
ARC
  5
103
  8
0
  6
CONTINUOUS
 62
     7
 10
214.1518981918
 20
116.8233269325
 30
0.0
 40
3.0
 50
0.0
 51
90.0
  0
LINE
  5
104
  8
0
  6
CONTINUOUS
 62
     7
 10
210.1518981918
 20
141.7233269325
 30
0.0
 11
199.1518981918
 21
141.7233269325
 31
0.0
  0
LINE
  5
105
  8
0
  6
CONTINUOUS
 62
     7
 10
199.1518981918
 20
117.7233269325
 30
0.0
 11
210.1518981918
 21
117.7233269325
 31
0.0
  0
LINE
  5
106
  8
0
  6
CONTINUOUS
 62
     7
 10
210.1518981918
 20
117.7233269325
 30
0.0
 11
212.2518981918
 21
119.8233269325
 31
0.0
  0
LINE
  5
107
  8
0
  6
CONTINUOUS
 62
     7
 10
212.2518981918
 20
139.6233269325
 30
0.0
 11
210.1518981918
 21
141.7233269325
 31
0.0
  0
LINE
  5
108
  8
0
  6
CONTINUOUS
 62
     7
 10
199.1518981918
 20
141.7233269325
 30
0.0
 11
197.1518981918
 21
139.7233269325
 31
0.0
  0
LINE
  5
109
  8
0
  6
CONTINUOUS
 62
     7
 10
197.1518981918
 20
119.7233269325
 30
0.0
 11
199.1518981918
 21
117.7233269325
 31
0.0
  0
LINE
  5
10A
  8
0
  6
CONTINUOUS
 62
     7
 10
214.1518981918
 20
139.6233269325
 30
0.0
 11
212.2518981918
 21
139.6233269325
 31
0.0
  0
LINE
  5
10B
  8
0
  6
CONTINUOUS
 62
     7
 10
212.2518981918
 20
119.8233269325
 30
0.0
 11
214.1518981918
 21
119.8233269325
 31
0.0
  0
LINE
  5
10C
  8
0
  6
CONTINUOUS
 62
     7
 10
297.1518981918
 20
159.7733269325
 30
0.0
 11
296.6518981918
 21
160.2733269325
 31
0.0
  0
LINE
  5
10D
  8
0
  6
CONTINUOUS
 62
     7
 10
296.6518981918
 20
160.2433199554
 30
0.0
 11
296.6518981918
 21
160.2733269325
 31
0.0
  0
POLYLINE
  5
10E
  8
0
  6
CONTINUOUS
 62
     7
 66
     1
 10
0.0
 20
0.0
 30
0.0
  0
VERTEX
  5
195
  8
0
  6
CONTINUOUS
 62
     7
 10
296.6518981918
 20
159.3055273854
 30
0.0
  0
VERTEX
  5
196
  8
0
  6
CONTINUOUS
 62
     7
 10
296.4439920419
 20
159.3480463979
 30
0.0
  0
VERTEX
  5
197
  8
0
  6
CONTINUOUS
 62
     7
 10
296.2474844843
 20
159.3930167271
 30
0.0
  0
VERTEX
  5
198
  8
0
  6
CONTINUOUS
 62
     7
 10
296.063608381
 20
159.4398905586
 30
0.0
  0
VERTEX
  5
199
  8
0
  6
CONTINUOUS
 62
     7
 10
295.893596594
 20
159.4881200778
 30
0.0
  0
VERTEX
  5
19A
  8
0
  6
CONTINUOUS
 62
     7
 10
295.7386819854
 20
159.5371574705
 30
0.0
  0
VERTEX
  5
19B
  8
0
  6
CONTINUOUS
 62
     7
 10
295.5991888027
 20
159.5867177771
 30
0.0
  0
VERTEX
  5
19C
  8
0
  6
CONTINUOUS
 62
     7
 10
295.4751559021
 20
159.6365300712
 30
0.0
  0
VERTEX
  5
19D
  8
0
  6
CONTINUOUS
 62
     7
 10
295.3673297186
 20
159.686087143
 30
0.0
  0
VERTEX
  5
19E
  8
0
  6
CONTINUOUS
 62
     7
 10
295.2764566874
 20
159.7348817826
 30
0.0
  0
VERTEX
  5
19F
  8
0
  6
CONTINUOUS
 62
     7
 10
295.2032832437
 20
159.7824067802
 30
0.0
  0
VERTEX
  5
1A0
  8
0
  6
CONTINUOUS
 62
     7
 10
295.1483064243
 20
159.8282342997
 30
0.0
  0
VERTEX
  5
1A1
  8
0
  6
CONTINUOUS
 62
     7
 10
295.1110564066
 20
159.8724678906
 30
0.0
  0
VERTEX
  5
1A2
  8
0
  6
CONTINUOUS
 62
     7
 10
295.0916700699
 20
159.9147843885
 30
0.0
  0
VERTEX
  5
1A3
  8
0
  6
CONTINUOUS
 62
     7
 10
295.0902842935
 20
159.9548606288
 30
0.0
  0
VERTEX
  5
1A4
  8
0
  6
CONTINUOUS
 62
     7
 10
295.1070359564
 20
159.992373447
 30
0.0
  0
VERTEX
  5
1A5
  8
0
  6
CONTINUOUS
 62
     7
 10
295.1418139618
 20
160.0270328657
 30
0.0
  0
VERTEX
  5
1A6
  8
0
  6
CONTINUOUS
 62
     7
 10
295.1944221815
 20
160.0591659294
 30
0.0
  0
VERTEX
  5
1A7
  8
0
  6
CONTINUOUS
 62
     7
 10
295.2643790301
 20
160.0886894124
 30
0.0
  0
VERTEX
  5
1A8
  8
0
  6
CONTINUOUS
 62
     7
 10
295.3512029226
 20
160.1155200893
 30
0.0
  0
VERTEX
  5
1A9
  8
0
  6
CONTINUOUS
 62
     7
 10
295.4544122736
 20
160.1395747345
 30
0.0
  0
VERTEX
  5
1AA
  8
0
  6
CONTINUOUS
 62
     7
 10
295.5743674347
 20
160.1609973165
 30
0.0
  0
VERTEX
  5
1AB
  8
0
  6
CONTINUOUS
 62
     7
 10
295.7105040391
 20
160.1799400221
 30
0.0
  0
VERTEX
  5
1AC
  8
0
  6
CONTINUOUS
 62
     7
 10
295.8618128819
 20
160.1965068624
 30
0.0
  0
VERTEX
  5
1AD
  8
0
  6
CONTINUOUS
 62
     7
 10
296.0272847583
 20
160.210801848
 30
0.0
  0
VERTEX
  5
1AE
  8
0
  6
CONTINUOUS
 62
     7
 10
296.2059104634
 20
160.22292899
 30
0.0
  0
VERTEX
  5
1AF
  8
0
  6
CONTINUOUS
 62
     7
 10
296.4214355211
 20
160.2342019942
 30
0.0
  0
VERTEX
  5
1B0
  8
0
  6
CONTINUOUS
 62
     7
 10
296.6518981918
 20
160.2433199554
 30
0.0
  0
SEQEND
  5
1B1
  8
0
  6
CONTINUOUS
 62
     7
  0
LINE
  5
10F
  8
0
  6
CONTINUOUS
 62
     7
 10
296.6518981918
 20
128.369618736
 30
0.0
 11
296.6518981918
 21
159.3055273854
 31
0.0
  0
ARC
  5
110
  8
0
  6
CONTINUOUS
 62
     7
 10
299.0204597938
 20
125.2321604334
 30
0.0
 40
3.931123079132969
 50
127.0502522983
 51
232.9497477017
  0
LINE
  5
111
  8
0
  6
CONTINUOUS
 62
     7
 10
296.6518981918
 20
99.1733269325
 30
0.0
 11
296.6518981918
 21
122.0947021307
 31
0.0
  0
LINE
  5
112
  8
0
  6
CONTINUOUS
 62
     7
 10
232.6518981918
 20
160.2733269325
 30
0.0
 11
232.6518981918
 21
99.1733269325
 31
0.0
  0
LINE
  5
113
  8
0
  6
CONTINUOUS
 62
     7
 10
258.1518981918
 20
147.2818718608
 30
0.0
 11
240.1518981918
 21
147.2818718608
 31
0.0
  0
LINE
  5
114
  8
0
  6
CONTINUOUS
 62
     7
 10
240.1518981918
 20
147.2818718608
 30
0.0
 11
240.1518981918
 21
112.1647820042
 31
0.0
  0
LINE
  5
115
  8
0
  6
CONTINUOUS
 62
     7
 10
240.1518981918
 20
112.1647820042
 30
0.0
 11
258.1518981918
 21
112.1647820042
 31
0.0
  0
LINE
  5
116
  8
0
  6
CONTINUOUS
 62
     7
 10
258.1518981918
 20
112.1647820042
 30
0.0
 11
258.1518981918
 21
147.2818718608
 31
0.0
  0
LINE
  5
117
  8
0
  6
CONTINUOUS
 62
     7
 10
232.1518981918
 20
99.6733269325
 30
0.0
 11
232.1518981918
 21
159.7733269325
 31
0.0
  0
ARC
  5
118
  8
0
  6
CONTINUOUS
 62
     7
 10
326.9489508207
 20
184.8333888354
 30
0.0
 40
39.61796446321003
 50
220.1170074421
 51
221.2265474335
  0
LINE
  5
119
  8
0
  6
CONTINUOUS
 62
     7
 10
297.1518981918
 20
158.7236442399
 30
0.0
 11
297.1518981918
 21
128.7734400675
 31
0.0
  0
ARC
  5
11A
  8
0
  6
CONTINUOUS
 62
     7
 10
300.0243038004
 20
124.7054562583
 30
0.0
 40
4.979880144283443
 50
125.2259362812
 51
132.6257079571
  0
LINE
  5
11B
  8
0
  6
CONTINUOUS
 62
     7
 10
297.1518981918
 20
122.8808158924
 30
0.0
 11
297.1518981918
 21
121.8503290239
 31
0.0
  0
ARC
  5
11C
  8
0
  6
CONTINUOUS
 62
     7
 10
298.3412496009
 20
124.9175029122
 30
0.0
 40
3.289697924610355
 50
239.1008967888
 51
248.8053088289
  0
ARC
  5
11D
  8
0
  6
CONTINUOUS
 62
     7
 10
298.852832162
 20
126.2354115334
 30
0.0
 40
3.761181767153982
 50
187.6952145699
 51
243.1128995518
  0
LINE
  5
11E
  8
0
  6
CONTINUOUS
 62
     7
 10
297.1518981918
 20
121.8503290239
 30
0.0
 11
297.1518981918
 21
99.6733269325
 31
0.0
  0
LINE
  5
11F
  8
0
  6
CONTINUOUS
 62
     7
 10
297.1518981918
 20
122.8808158924
 30
0.0
 11
297.1518981918
 21
128.7734400675
 31
0.0
  0
LINE
  5
120
  8
0
  6
CONTINUOUS
 62
     7
 10
217.5518981918
 20
113.6233269325
 30
0.0
 11
217.5518981918
 21
145.8233269325
 31
0.0
  0
LINE
  5
121
  8
0
  6
CONTINUOUS
 62
     7
 10
230.0251032726
 20
145.8233269325
 30
0.0
 11
230.0251032726
 21
113.6233269325
 31
0.0
  0
LINE
  5
122
  8
0
  6
CONTINUOUS
 62
     7
 10
217.1518981918
 20
114.0233269325
 30
0.0
 11
217.1518981918
 21
145.4233269325
 31
0.0
  0
LINE
  5
123
  8
0
  6
CONTINUOUS
 62
     7
 10
210.1518981918
 20
141.7233269325
 30
0.0
 11
210.1518981918
 21
117.7233269325
 31
0.0
  0
LINE
  5
124
  8
0
  6
CONTINUOUS
 62
     7
 10
199.1518981918
 20
141.7233269325
 30
0.0
 11
199.1518981918
 21
117.7233269325
 31
0.0
  0
LINE
  5
125
  8
0
  6
CONTINUOUS
 62
     7
 10
212.2518981918
 20
139.6233269325
 30
0.0
 11
212.2518981918
 21
119.8233269325
 31
0.0
  0
LINE
  5
126
  8
0
  6
CONTINUOUS
 62
     7
 10
197.1518981918
 20
139.7233269325
 30
0.0
 11
197.1518981918
 21
119.7233269325
 31
0.0
  0
ARC
  5
127
  8
0
  6
CONTINUOUS
 62
     7
 10
245.5865680896
 20
107.099485902
 30
0.0
 40
73.70166237169889
 50
45.6011111275
 51
46.1426415005
  0
LINE
  5
128
  8
0
  6
CONTINUOUS
 62
     7
 10
297.1518981918
 20
159.7583101178
 30
0.0
 11
297.1518981918
 21
158.7236442399
 31
0.0
  0
LINE
  5
129
  8
0
  6
CONTINUOUS
 62
     7
 10
297.1518981918
 20
159.7733269325
 30
0.0
 11
297.1518981918
 21
159.7583101178
 31
0.0
  0
LINE
  5
12A
  8
0
  6
CENTER
 62
     7
 10
301.3547674304
 20
129.7233269325
 30
0.0
 11
189.4494175203
 21
129.7233269325
 31
0.0
  0
LINE
  5
12B
  8
0
  6
CONTINUOUS
 62
     7
 10
258.1518981918
 20
147.2818718608
 30
0.0
 11
240.1518981918
 21
112.1647820042
 31
0.0
  0
LINE
  5
12C
  8
0
  6
CONTINUOUS
 62
     7
 10
240.1518981918
 20
147.2818718608
 30
0.0
 11
258.1518981918
 21
112.1647820042
 31
0.0
  0
DIMENSION
  5
12D
  8
0
  6
CONTINUOUS
 62
     7
  2
*D6
 10
313.3781341484
 20
99.1733269325
 30
0.0
 11
313.3781341484
 21
129.7233269325
 31
0.0
 70
   160
  1
%%c<>
  3
SLDDIMSTYLE1
 13
296.6518981918
 23
160.2733269325
 33
0.0
 14
296.6518981918
 24
99.1733269325
 34
0.0
 50
90.0
  0
LINE
  5
139
  8
0
  6
CONTINUOUS
 62
     7
 10
197.5268981918
 20
140.0983269325
 30
0.0
 11
211.7768981918
 21
140.0983269325
 31
0.0
  0
LINE
  5
13A
  8
0
  6
CONTINUOUS
 62
     7
 10
197.5268981918
 20
119.3483269325
 30
0.0
 11
211.7768981918
 21
119.3483269325
 31
0.0
  0
LINE
  5
13B
  8
0
  6
CONTINUOUS
 62
     7
 10
134.7201946062
 20
237.6211665986
 30
0.0
 11
141.6153432443
 21
238.651653467
 31
0.0
  0
ARC
  5
13C
  8
0
  6
CONTINUOUS
 62
     7
 10
140.1535243659
 20
234.3559235238
 30
0.0
 40
4.537643681307746
 50
63.2313947352
 51
71.2067759905
  0
ARC
  5
13D
  8
0
  6
CONTINUOUS
 62
     7
 10
112.603896401
 20
230.7769922381
 30
0.0
 40
30.5611923302796
 50
2.5418689893
 51
14.4581310107
  0
ARC
  5
13E
  8
0
  6
CONTINUOUS
 62
     7
 10
139.9961392582
 20
235.4091456534
 30
0.0
 40
4.537605689271265
 50
305.7931905677
 51
313.7686387066
  0
LINE
  5
13F
  8
0
  6
CONTINUOUS
 62
     7
 10
142.6500091223
 20
231.7285424234
 30
0.0
 11
135.948810436
 21
230.7270415695
 31
0.0
  0
ARC
  5
140
  8
0
  6
CONTINUOUS
 62
     7
 10
134.4266427763
 20
234.0123125806
 30
0.0
 40
3.620773398046335
 50
85.3496782469
 51
294.8597482162
  0
LINE
  5
141
  8
0
  6
CONTINUOUS
 62
     7
 10
119.4575369771
 20
208.6734868891
 30
0.0
 11
120.4880238455
 21
201.778338251
 31
0.0
  0
ARC
  5
142
  8
0
  6
CONTINUOUS
 62
     7
 10
116.1922939023
 20
203.2401571295
 30
0.0
 40
4.537643681317149
 50
333.2313947352
 51
341.2067759905
  0
ARC
  5
143
  8
0
  6
CONTINUOUS
 62
     7
 10
112.6136783686
 20
230.7876723488
 30
0.0
 40
30.55906766094241
 50
272.5414532406
 51
284.4585467594
  0
ARC
  5
144
  8
0
  6
CONTINUOUS
 62
     7
 10
117.2455160318
 20
203.3975422371
 30
0.0
 40
4.537605689261407
 50
215.7931905677
 51
223.7686387066
  0
LINE
  5
145
  8
0
  6
CONTINUOUS
 62
     7
 10
113.5649128019
 20
200.7436723731
 30
0.0
 11
112.563411948
 21
207.4448710593
 31
0.0
  0
ARC
  5
146
  8
0
  6
CONTINUOUS
 62
     7
 10
115.8486829591
 20
208.967038719
 30
0.0
 40
3.620773398046339
 50
355.3496782469
 51
204.8597482162
  0
ARC
  5
147
  8
0
  6
CONTINUOUS
 62
     7
 10
109.3813689148
 20
252.5902723978
 30
0.0
 40
3.620773398046339
 50
175.3496782469
 51
24.8597482162
  0
LINE
  5
148
  8
0
  6
CONTINUOUS
 62
     7
 10
105.7725148968
 20
252.8838242277
 30
0.0
 11
104.7420280284
 21
259.7789728659
 31
0.0
  0
ARC
  5
149
  8
0
  6
CONTINUOUS
 62
     7
 10
109.0377579716
 20
258.3171539874
 30
0.0
 40
4.537643681312121
 50
153.2313947352
 51
161.2067759905
  0
ARC
  5
14A
  8
0
  6
CONTINUOUS
 62
     7
 10
112.6163735053
 20
230.769638768
 30
0.0
 40
30.55906766094644
 50
92.5414532406
 51
104.4585467594
  0
ARC
  5
14B
  8
0
  6
CONTINUOUS
 62
     7
 10
107.984535842
 20
258.1597688797
 30
0.0
 40
4.53760568926847
 50
35.7931905677
 51
43.7686387066
  0
LINE
  5
14C
  8
0
  6
CONTINUOUS
 62
     7
 10
111.6651390719
 20
260.8136387438
 30
0.0
 11
112.6666399258
 21
254.1124400575
 31
0.0
  0
ARC
  5
14D
  8
0
  6
CONTINUOUS
 62
     7
 10
90.8034090975
 20
227.5449985363
 30
0.0
 40
3.620773398046354
 50
265.3496782469
 51
114.8597482162
  0
LINE
  5
14E
  8
0
  6
CONTINUOUS
 62
     7
 10
90.5098572676
 20
223.9361445183
 30
0.0
 11
83.6147086295
 21
222.9056576499
 31
0.0
  0
ARC
  5
14F
  8
0
  6
CONTINUOUS
 62
     7
 10
85.076527508
 20
227.2013875931
 30
0.0
 40
4.537643681311452
 50
243.2313947352
 51
251.2067759905
  0
ARC
  5
150
  8
0
  6
CONTINUOUS
 62
     7
 10
112.6240427273
 20
230.7800031268
 30
0.0
 40
30.55906766094623
 50
182.5414532406
 51
194.4585467594
  0
ARC
  5
151
  8
0
  6
CONTINUOUS
 62
     7
 10
85.2339126156
 20
226.1481654635
 30
0.0
 40
4.537605689269442
 50
125.7931905677
 51
133.7686387066
  0
LINE
  5
152
  8
0
  6
CONTINUOUS
 62
     7
 10
82.5800427516
 20
229.8287686934
 30
0.0
 11
89.2812414378
 21
230.8302695473
 31
0.0
  0
CIRCLE
  5
153
  8
0
  6
CONTINUOUS
 62
     7
 10
112.6150259369
 20
230.7786555584
 30
0.0
 40
9.477350269189628
  0
CIRCLE
  5
154
  8
0
  6
CONTINUOUS
 62
     7
 10
125.7564888489
 20
224.6506907632
 30
0.0
 40
4.59999999999998
  0
CIRCLE
  5
155
  8
0
  6
CONTINUOUS
 62
     7
 10
99.4735630249
 20
236.9066203537
 30
0.0
 40
4.600000000000009
  0
ARC
  5
156
  8
0
  6
CONTINUOUS
 62
     7
 10
112.6150259369
 20
230.7786555584
 30
0.0
 40
30.05000000000001
 50
195.1885665223
 51
271.8114334777
  0
ARC
  5
157
  8
0
  6
CONTINUOUS
 62
     7
 10
112.6150259369
 20
230.7786555584
 30
0.0
 40
30.05
 50
105.1885665223
 51
181.8114334777
  0
ARC
  5
158
  8
0
  6
CONTINUOUS
 62
     7
 10
112.6150259369
 20
230.7786555584
 30
0.0
 40
30.05000000000001
 50
15.1885665223
 51
91.8114334777
  0
ARC
  5
159
  8
0
  6
CONTINUOUS
 62
     7
 10
112.6150259369
 20
230.7786555584
 30
0.0
 40
30.05
 50
285.1885665223
 51
1.8114334777
  0
ARC
  5
15A
  8
0
  6
CONTINUOUS
 62
     7
 10
112.6150259369
 20
230.7786555584
 30
0.0
 40
30.54999999999998
 50
284.4603217446
 51
2.5396782554
  0
ARC
  5
15B
  8
0
  6
CONTINUOUS
 62
     7
 10
112.6150259369
 20
230.7786555584
 30
0.0
 40
30.55000000000003
 50
14.4603217446
 51
92.5396782554
  0
CIRCLE
  5
15C
  8
0
  6
CONTINUOUS
 62
     7
 10
125.7564888489
 20
224.6506907632
 30
0.0
 40
4.100000000000009
  0
CIRCLE
  5
15D
  8
0
  6
CONTINUOUS
 62
     7
 10
112.6150259369
 20
230.7786555584
 30
0.0
 40
8.900000000000006
  0
ARC
  5
15E
  8
0
  6
CONTINUOUS
 62
     7
 10
112.6150259369
 20
230.7786555584
 30
0.0
 40
30.55
 50
194.4603217446
 51
272.5396782554
  0
ARC
  5
15F
  8
0
  6
CONTINUOUS
 62
     7
 10
112.6150259369
 20
230.7786555584
 30
0.0
 40
30.55
 50
104.4603217446
 51
182.5396782554
  0
CIRCLE
  5
160
  8
0
  6
CONTINUOUS
 62
     7
 10
99.4735630249
 20
236.9066203537
 30
0.0
 40
4.099999999999994
  0
CIRCLE
  5
161
  8
0
  6
CONTINUOUS
 62
     7
 10
112.6150259369
 20
230.7786555584
 30
0.0
 40
5.09999999999998
  0
LINE
  5
162
  8
0
  6
CENTER
 62
     7
 10
145.3684503468
 20
230.7786555584
 30
0.0
 11
78.197795325
 21
230.7786555584
 31
0.0
  0
LINE
  5
163
  8
0
  6
CENTER
 62
     7
 10
112.6150259369
 20
230.7786555584
 30
0.0
 11
145.2641151241
 21
235.6580946306
 31
0.0
  0
LINE
  5
164
  8
0
  6
CENTER
 62
     7
 10
112.6150259369
 20
264.6816830988
 30
0.0
 11
112.6150259369
 21
195.046049911
 31
0.0
  0
LINE
  5
165
  8
0
  6
CENTER
 62
     7
 10
112.6150259369
 20
230.7786555584
 30
0.0
 11
133.1677940202
 21
221.1947424049
 31
0.0
  0
LINE
  5
166
  8
0
  6
CENTER
 62
     7
 10
103.6173010026
 20
252.7600072939
 30
0.0
 11
116.511197837
 21
254.6870130871
 31
0.0
  0
LINE
  5
167
  8
0
  6
CENTER
 62
     7
 10
112.6150259369
 20
230.7786555584
 30
0.0
 11
93.2584704092
 21
239.8047656365
 31
0.0
  0
LINE
  5
168
  8
0
  6
CENTER
 62
     7
 10
112.6150259369
 20
230.7786555584
 30
0.0
 11
101.7244995565
 21
225.7003197059
 31
0.0
  0
LINE
  5
169
  8
0
  6
CENTER
 62
     7
 10
108.0653399493
 20
261.2213153371
 30
0.0
 11
110.2075613784
 21
246.8873770579
 31
0.0
  0
LINE
  5
16A
  8
0
  6
CENTER
 62
     7
 10
116.6251269858
 20
203.9464429087
 30
0.0
 11
114.5053332365
 21
218.1303140784
 31
0.0
  0
LINE
  5
16B
  8
0
  6
CENTER
 62
     7
 10
80.5216267128
 20
225.9822649077
 30
0.0
 11
103.6426680528
 21
229.4377276882
 31
0.0
  0
LINE
  5
16C
  8
0
  6
CENTER
 62
     7
 10
133.5996457782
 20
239.5458787041
 30
0.0
 11
135.2977373433
 21
228.1836827346
 31
0.0
  0
LINE
  5
16D
  8
0
  6
CENTER
 62
     7
 10
120.2291764854
 20
209.6217078629
 30
0.0
 11
111.6064934365
 21
208.3330392469
 31
0.0
  0
LINE
  5
16E
  8
0
  6
CENTER
 62
     7
 10
90.1723497218
 20
231.7675154144
 30
0.0
 11
91.5275243651
 21
222.6998301461
 31
0.0
  0
CIRCLE
  5
16F
  8
0
  6
CENTER
 62
     7
 10
112.6150259369
 20
230.7786555584
 30
0.0
 40
14.5
  0
ARC
  5
170
  8
0
  6
HIDDEN
 62
     7
 10
112.6150259369
 20
230.7786555584
 30
0.0
 40
10.37500000000002
 50
75.0
 51
345.0
  0
ARC
  5
171
  8
0
  6
CONTINUOUS
 62
     7
 10
112.6150259369
 20
230.7786555584
 30
0.0
 40
6.000000000000017
 50
75.0
 51
345.0
  0
ENDSEC
  0
EOF
